Скользящие / Sliders / Сезон 5 (1 - 18 серии из 18) (Tracy Torme, Robert K. Weiss) [1999-2000, США, Приключения, Фантастика, Боевик, 5*DVD9 (Custom)] 

Цитировать
Скользящие / Sliders Год выпуска: 1999-2000
Страна: США
Жанр: Приключения, Фантастика, Боевик
Продолжительность: 775 мин
Перевод: Профессиональный (двухголосый, закадровый) (Sci-Fi)
Русские субтитры: нет
Режиссер: Tracy Torme, Robert K. Weiss
В ролях: Джерри О'Коннел, Сабрина Ллойд, Джон Рис-Дэвис, Клевант Деррикс, Кери Вюрер, Чарли О'Коннел, Роберт Флойд, Темби Локке
Описание: SLIDERS - это фантастический сериал про студента-физика Куина Мелори, который, основываясь на теории Энштейна, проводил эксперименты по исследованию гравитации. В ходе них он вместо гравитационной машины получил машину-портал позволяющую перемещаться ("скользить") в параллельные миры. Куин вместе со своим учителем профессором Артуро, подружкой Вейд и случайно попавшим в воронку портала Рембрандтом Брауном отправился в "небольшое" путешествие в параллельный мир. Но им пришлось срочно эвакуироваться из этого мира, сбив при этом настройки таймера, контролирующего их скольжения. И теперь они не могут вернуться домой и не знают в какой следующий мир попадут...-Доп. информация: Это оригинальное европейское R2 издание с добавленной русской аудиодорожкой. За аудиодорожку Sci-fi огромное спасибо DeVil_N.
Релиз: -Все раздачи сериала
Сэмпл
-
Качество: DVD9
Формат: DVD-Video
Видео кодек: MPEG2
Аудио кодек: AC3
Видео: PAL 4:3 (720x576) VBR, ~5133 kbps, 0.495 bit/pixel
Аудио 1: Russian Dolby AC3, 2/0 ch, 192Kbps
Аудио 2: French Dolby AC3, 2/0 ch, 192Kbps
Аудио 3: English Dolby AC3, 2/0 ch, 192Kbps
Субтитры: French, Dutch (Nederlands)

DVDInfo

DVD 1

Title: Video3
Size: 5.42 Gb ( 5 686 872 KBytes ) - DVD-9
Enabled regions: 1, 2, 3, 4, 5, 6, 7, 8
VTS_01 :
Play Length: 00:42:57
Video: PAL 4:3 (720x576) VBR
Audio:
Russian (Dolby AC3, 2 ch)
Francais (Dolby AC3, 2 ch)
English (Dolby AC3, 2 ch)
Subtitles:
Francais
Francais
Nederlands
Nederlands
VTS_02 :
Play Length: 00:42:56
Video: PAL 4:3 (720x576) VBR
Audio:
Russian (Dolby AC3, 2 ch)
Francais (Dolby AC3, 2 ch)
English (Dolby AC3, 2 ch)
Subtitles:
Francais
Francais
Nederlands
Nederlands
VTS_03 :
Play Length: 00:42:56
Video: PAL 4:3 (720x576) VBR
Audio:
Russian (Dolby AC3, 2 ch)
Francais (Dolby AC3, 2 ch)
English (Dolby AC3, 2 ch)
Subtitles:
Francais
Francais
Nederlands
Nederlands

DVD 2

Title: Video3
Size: 7.14 Gb ( 7 488 220 KBytes ) - DVD-9
Enabled regions: 1, 2, 3, 4, 5, 6, 7, 8
VTS_01 :
Play Length: 00:42:56
Video: PAL 4:3 (720x576) VBR
Audio:
Russian (Dolby AC3, 2 ch)
Francais (Dolby AC3, 2 ch)
English (Dolby AC3, 2 ch)
Subtitles:
Francais
Francais
Nederlands
Nederlands
VTS_02 :
Play Length: 00:42:56
Video: PAL 4:3 (720x576) VBR
Audio:
Russian (Dolby AC3, 2 ch)
Francais (Dolby AC3, 2 ch)
English (Dolby AC3, 2 ch)
Subtitles:
Francais
Francais
Nederlands
Nederlands
VTS_03 :
Play Length: 00:42:56
Video: PAL 4:3 (720x576) VBR
Audio:
Russian (Dolby AC3, 2 ch)
Francais (Dolby AC3, 2 ch)
English (Dolby AC3, 2 ch)
Subtitles:
Francais
Francais
Nederlands
Nederlands
VTS_04 :
Play Length: 00:42:56
Video: PAL 4:3 (720x576) VBR
Audio:
Russian (Dolby AC3, 2 ch)
Francais (Dolby AC3, 2 ch)
English (Dolby AC3, 2 ch)
Subtitles:
Francais
Francais
Nederlands
Nederlands

DVD 3

Title: Video3
Size: 7.14 Gb ( 7 492 070 KBytes ) - DVD-9
Enabled regions: 1, 2, 3, 4, 5, 6, 7, 8
VTS_01 :
Play Length: 00:42:56
Video: PAL 4:3 (720x576) VBR
Audio:
Russian (Dolby AC3, 2 ch)
Francais (Dolby AC3, 2 ch)
English (Dolby AC3, 2 ch)
Subtitles:
Francais
Francais
Nederlands
Nederlands
VTS_02 :
Play Length: 00:42:57
Video: PAL 4:3 (720x576) VBR
Audio:
Russian (Dolby AC3, 2 ch)
Francais (Dolby AC3, 2 ch)
English (Dolby AC3, 2 ch)
Subtitles:
Francais
Francais
Nederlands
Nederlands
VTS_03 :
Play Length: 00:42:56
Video: PAL 4:3 (720x576) VBR
Audio:
Russian (Dolby AC3, 2 ch)
Francais (Dolby AC3, 2 ch)
English (Dolby AC3, 2 ch)
Subtitles:
Francais
Francais
Nederlands
Nederlands
VTS_04 :
Play Length: 00:42:55
Video: PAL 4:3 (720x576) VBR
Audio:
Russian (Dolby AC3, 2 ch)
Francais (Dolby AC3, 2 ch)
English (Dolby AC3, 2 ch)
Subtitles:
Francais
Francais
Nederlands
Nederlands

DVD 4

Title: Video3
Size: 7.14 Gb ( 7 483 708 KBytes ) - DVD-9
Enabled regions: 1, 2, 3, 4, 5, 6, 7, 8
VTS_01 :
Play Length: 00:42:57
Video: PAL 4:3 (720x576) VBR
Audio:
Russian (Dolby AC3, 2 ch)
Francais (Dolby AC3, 2 ch)
English (Dolby AC3, 2 ch)
Subtitles:
Francais
Francais
Nederlands
Nederlands
VTS_02 :
Play Length: 00:42:56
Video: PAL 4:3 (720x576) VBR
Audio:
Russian (Dolby AC3, 2 ch)
Francais (Dolby AC3, 2 ch)
English (Dolby AC3, 2 ch)
Subtitles:
Francais
Francais
Nederlands
Nederlands
VTS_03 :
Play Length: 00:42:56
Video: PAL 4:3 (720x576) VBR
Audio:
Russian (Dolby AC3, 2 ch)
Francais (Dolby AC3, 2 ch)
English (Dolby AC3, 2 ch)
Subtitles:
Francais
Francais
Nederlands
Nederlands
VTS_04 :
Play Length: 00:42:55
Video: PAL 4:3 (720x576) VBR
Audio:
Russian (Dolby AC3, 2 ch)
Francais (Dolby AC3, 2 ch)
English (Dolby AC3, 2 ch)
Subtitles:
Francais
Francais
Nederlands
Nederlands

DVD 5

Title: Video3
Size: 5.43 Gb ( 5 698 774 KBytes ) - DVD-9
Enabled regions: 1, 2, 3, 4, 5, 6, 7, 8
VTS_01 :
Play Length: 00:42:57
Video: PAL 4:3 (720x576) VBR
Audio:
Russian (Dolby AC3, 2 ch)
Francais (Dolby AC3, 2 ch)
English (Dolby AC3, 2 ch)
Subtitles:
Francais
Francais
Nederlands
Nederlands
VTS_02 :
Play Length: 00:42:54
Video: PAL 4:3 (720x576) VBR
Audio:
Russian (Dolby AC3, 2 ch)
Francais (Dolby AC3, 2 ch)
English (Dolby AC3, 2 ch)
Subtitles:
Francais
Francais
Nederlands
Nederlands
VTS_03 :
Play Length: 00:42:56
Video: PAL 4:3 (720x576) VBR
Audio:
Russian (Dolby AC3, 2 ch)
Francais (Dolby AC3, 2 ch)
English (Dolby AC3, 2 ch)
Subtitles:
Francais
Francais
Nederlands
Nederlands

MediaInfo

DVD 1

Общее
Полное имя : K:\Sliders DVD S04-S05\Sliders Season 5 DVD9\DVD 1\VIDEO_TS\VTS_01_1.VOB
Формат : MPEG-PS
Размер файла : 1024 Мбайт
Продолжительность : 24 м.
Общий поток : 5825 Кбит/сек
Видео
Идентификатор : 224 (0xE0)
Формат : MPEG Video
Версия формата : Version 2
Профиль формата : Main@Main
Параметр BVOP формата : Да
Параметр матрицы формата : По умолчанию
Параметры GOP формата : M=3, N=12
Продолжительность : 24 м.
Вид битрейта : Переменный
Битрейт : 5133 Кбит/сек
Номинальный битрейт : 7500 Кбит/сек
Ширина : 720 пикс.
Высота : 576 пикс.
Соотношение сторон : 4:3
Частота кадров : 25,000 кадр/сек
Стандарт вещания : PAL
Цветовое пространство : YUV
Подвыборка цветности : 4:2:0
Битовая глубина : 8 бит
Тип развёртки : Чересстрочная
Порядок развёртки : Нижнее поле первое
Метод сжатия : С потерями
Бит/(Пиксели*Кадры) : 0.495
Размер потока : 902 Мбайт (88%)
Аудио #1
Идентификатор : 128 (0x80)
Формат : AC-3
Формат/Информация : Audio Coding 3
Расширение режима : CM (complete main)
Продолжительность : 24 м.
Вид битрейта : Постоянный
Битрейт : 192 Кбит/сек
Канал(ы) : 2 канала(ов)
Расположение каналов : Front: L R
Частота : 48,0 КГц
Битовая глубина : 16 бит
Метод сжатия : С потерями
Размер потока : 33,7 Мбайт (3%)
Аудио #2
Идентификатор : 129 (0x81)
Формат : AC-3
Формат/Информация : Audio Coding 3
Расширение режима : CM (complete main)
Продолжительность : 24 м.
Вид битрейта : Постоянный
Битрейт : 192 Кбит/сек
Канал(ы) : 2 канала(ов)
Расположение каналов : Front: L R
Частота : 48,0 КГц
Битовая глубина : 16 бит
Метод сжатия : С потерями
Размер потока : 33,7 Мбайт (3%)
Аудио #3
Идентификатор : 130 (0x82)
Формат : AC-3
Формат/Информация : Audio Coding 3
Расширение режима : CM (complete main)
Продолжительность : 24 м.
Вид битрейта : Постоянный
Битрейт : 192 Кбит/сек
Канал(ы) : 2 канала(ов)
Расположение каналов : Front: L R
Частота : 48,0 КГц
Битовая глубина : 16 бит
Метод сжатия : С потерями
Размер потока : 33,7 Мбайт (3%)
Текст #1
Идентификатор : 33 (0x21)
Формат : RLE
Формат/Информация : Run-length encoding
Текст #2
Идентификатор : 34 (0x22)
Формат : RLE
Формат/Информация : Run-length encoding

DVD 2

Общее
Полное имя : K:\Sliders DVD S04-S05\Sliders Season 5 DVD9\DVD 2\VIDEO_TS\VTS_01_1.VOB
Формат : MPEG-PS
Размер файла : 1024 Мбайт
Продолжительность : 25 м.
Общий поток : 5663 Кбит/сек
Видео
Идентификатор : 224 (0xE0)
Формат : MPEG Video
Версия формата : Version 2
Профиль формата : Main@Main
Параметр BVOP формата : Да
Параметр матрицы формата : По умолчанию
Параметры GOP формата : M=3, N=12
Продолжительность : 25 м.
Вид битрейта : Переменный
Битрейт : 4974 Кбит/сек
Номинальный битрейт : 7500 Кбит/сек
Ширина : 720 пикс.
Высота : 576 пикс.
Соотношение сторон : 4:3
Частота кадров : 25,000 кадр/сек
Стандарт вещания : PAL
Цветовое пространство : YUV
Подвыборка цветности : 4:2:0
Битовая глубина : 8 бит
Тип развёртки : Чересстрочная
Порядок развёртки : Нижнее поле первое
Метод сжатия : С потерями
Бит/(Пиксели*Кадры) : 0.480
Размер потока : 899 Мбайт (88%)
Аудио #1
Идентификатор : 128 (0x80)
Формат : AC-3
Формат/Информация : Audio Coding 3
Расширение режима : CM (complete main)
Продолжительность : 25 м.
Вид битрейта : Постоянный
Битрейт : 192 Кбит/сек
Канал(ы) : 2 канала(ов)
Расположение каналов : Front: L R
Частота : 48,0 КГц
Битовая глубина : 16 бит
Метод сжатия : С потерями
Размер потока : 34,7 Мбайт (3%)
Аудио #2
Идентификатор : 129 (0x81)
Формат : AC-3
Формат/Информация : Audio Coding 3
Расширение режима : CM (complete main)
Продолжительность : 25 м.
Вид битрейта : Постоянный
Битрейт : 192 Кбит/сек
Канал(ы) : 2 канала(ов)
Расположение каналов : Front: L R
Частота : 48,0 КГц
Битовая глубина : 16 бит
Метод сжатия : С потерями
Размер потока : 34,7 Мбайт (3%)
Аудио #3
Идентификатор : 130 (0x82)
Формат : AC-3
Формат/Информация : Audio Coding 3
Расширение режима : CM (complete main)
Продолжительность : 25 м.
Вид битрейта : Постоянный
Битрейт : 192 Кбит/сек
Канал(ы) : 2 канала(ов)
Расположение каналов : Front: L R
Частота : 48,0 КГц
Битовая глубина : 16 бит
Метод сжатия : С потерями
Размер потока : 34,7 Мбайт (3%)
Текст
Идентификатор : 33 (0x21)
Формат : RLE
Формат/Информация : Run-length encoding

DVD 3

Общее
Полное имя : K:\Sliders DVD S04-S05\Sliders Season 5 DVD9\DVD 3\VIDEO_TS\VTS_01_1.VOB
Формат : MPEG-PS
Размер файла : 1024 Мбайт
Продолжительность : 23 м.
Общий поток : 5977 Кбит/сек
Видео
Идентификатор : 224 (0xE0)
Формат : MPEG Video
Версия формата : Version 2
Профиль формата : Main@Main
Параметр BVOP формата : Да
Параметр матрицы формата : По умолчанию
Параметры GOP формата : M=3, N=12
Продолжительность : 23 м.
Вид битрейта : Переменный
Битрейт : 5282 Кбит/сек
Номинальный битрейт : 7500 Кбит/сек
Ширина : 720 пикс.
Высота : 576 пикс.
Соотношение сторон : 4:3
Частота кадров : 25,000 кадр/сек
Стандарт вещания : PAL
Цветовое пространство : YUV
Подвыборка цветности : 4:2:0
Битовая глубина : 8 бит
Тип развёртки : Чересстрочная
Порядок развёртки : Нижнее поле первое
Метод сжатия : С потерями
Бит/(Пиксели*Кадры) : 0.509
Размер потока : 905 Мбайт (88%)
Аудио #1
Идентификатор : 128 (0x80)
Формат : AC-3
Формат/Информация : Audio Coding 3
Расширение режима : CM (complete main)
Продолжительность : 23 м.
Вид битрейта : Постоянный
Битрейт : 192 Кбит/сек
Канал(ы) : 2 канала(ов)
Расположение каналов : Front: L R
Частота : 48,0 КГц
Битовая глубина : 16 бит
Метод сжатия : С потерями
Размер потока : 32,9 Мбайт (3%)
Аудио #2
Идентификатор : 129 (0x81)
Формат : AC-3
Формат/Информация : Audio Coding 3
Расширение режима : CM (complete main)
Продолжительность : 23 м.
Вид битрейта : Постоянный
Битрейт : 192 Кбит/сек
Канал(ы) : 2 канала(ов)
Расположение каналов : Front: L R
Частота : 48,0 КГц
Битовая глубина : 16 бит
Метод сжатия : С потерями
Размер потока : 32,9 Мбайт (3%)
Аудио #3
Идентификатор : 130 (0x82)
Формат : AC-3
Формат/Информация : Audio Coding 3
Расширение режима : CM (complete main)
Продолжительность : 23 м.
Вид битрейта : Постоянный
Битрейт : 192 Кбит/сек
Канал(ы) : 2 канала(ов)
Расположение каналов : Front: L R
Частота : 48,0 КГц
Битовая глубина : 16 бит
Метод сжатия : С потерями
Размер потока : 32,9 Мбайт (3%)
Текст #1
Идентификатор : 33 (0x21)
Формат : RLE
Формат/Информация : Run-length encoding
Текст #2
Идентификатор : 34 (0x22)
Формат : RLE
Формат/Информация : Run-length encoding

DVD 4

Общее
Полное имя : K:\Sliders DVD S04-S05\Sliders Season 5 DVD9\DVD 4\VIDEO_TS\VTS_01_1.VOB
Формат : MPEG-PS
Размер файла : 1024 Мбайт
Продолжительность : 24 м.
Общий поток : 5840 Кбит/сек
Видео
Идентификатор : 224 (0xE0)
Формат : MPEG Video
Версия формата : Version 2
Профиль формата : Main@Main
Параметр BVOP формата : Да
Параметр матрицы формата : По умолчанию
Параметры GOP формата : M=3, N=12
Продолжительность : 24 м.
Вид битрейта : Переменный
Битрейт : 5148 Кбит/сек
Номинальный битрейт : 7500 Кбит/сек
Ширина : 720 пикс.
Высота : 576 пикс.
Соотношение сторон : 4:3
Частота кадров : 25,000 кадр/сек
Стандарт вещания : PAL
Цветовое пространство : YUV
Подвыборка цветности : 4:2:0
Битовая глубина : 8 бит
Тип развёртки : Чересстрочная
Порядок развёртки : Нижнее поле первое
Метод сжатия : С потерями
Бит/(Пиксели*Кадры) : 0.496
Размер потока : 903 Мбайт (88%)
Аудио #1
Идентификатор : 128 (0x80)
Формат : AC-3
Формат/Информация : Audio Coding 3
Расширение режима : CM (complete main)
Продолжительность : 24 м.
Вид битрейта : Постоянный
Битрейт : 192 Кбит/сек
Канал(ы) : 2 канала(ов)
Расположение каналов : Front: L R
Частота : 48,0 КГц
Битовая глубина : 16 бит
Метод сжатия : С потерями
Размер потока : 33,7 Мбайт (3%)
Аудио #2
Идентификатор : 129 (0x81)
Формат : AC-3
Формат/Информация : Audio Coding 3
Расширение режима : CM (complete main)
Продолжительность : 24 м.
Вид битрейта : Постоянный
Битрейт : 192 Кбит/сек
Канал(ы) : 2 канала(ов)
Расположение каналов : Front: L R
Частота : 48,0 КГц
Битовая глубина : 16 бит
Метод сжатия : С потерями
Размер потока : 33,7 Мбайт (3%)
Аудио #3
Идентификатор : 130 (0x82)
Формат : AC-3
Формат/Информация : Audio Coding 3
Расширение режима : CM (complete main)
Продолжительность : 24 м.
Вид битрейта : Постоянный
Битрейт : 192 Кбит/сек
Канал(ы) : 2 канала(ов)
Расположение каналов : Front: L R
Частота : 48,0 КГц
Битовая глубина : 16 бит
Метод сжатия : С потерями
Размер потока : 33,7 Мбайт (3%)

DVD 5

Общее
Полное имя : K:\Sliders DVD S04-S05\Sliders Season 5 DVD9\DVD 5\VIDEO_TS\VTS_01_1.VOB
Формат : MPEG-PS
Размер файла : 1024 Мбайт
Продолжительность : 24 м.
Общий поток : 5780 Кбит/сек
Видео
Идентификатор : 224 (0xE0)
Формат : MPEG Video
Версия формата : Version 2
Профиль формата : Main@Main
Параметр BVOP формата : Да
Параметр матрицы формата : По умолчанию
Параметры GOP формата : M=3, N=12
Продолжительность : 24 м.
Вид битрейта : Переменный
Битрейт : 5089 Кбит/сек
Номинальный битрейт : 7500 Кбит/сек
Ширина : 720 пикс.
Высота : 576 пикс.
Соотношение сторон : 4:3
Частота кадров : 25,000 кадр/сек
Стандарт вещания : PAL
Цветовое пространство : YUV
Подвыборка цветности : 4:2:0
Битовая глубина : 8 бит
Тип развёртки : Чересстрочная
Порядок развёртки : Нижнее поле первое
Метод сжатия : С потерями
Бит/(Пиксели*Кадры) : 0.491
Размер потока : 902 Мбайт (88%)
Аудио #1
Идентификатор : 128 (0x80)
Формат : AC-3
Формат/Информация : Audio Coding 3
Расширение режима : CM (complete main)
Продолжительность : 24 м.
Вид битрейта : Постоянный
Битрейт : 192 Кбит/сек
Канал(ы) : 2 канала(ов)
Расположение каналов : Front: L R
Частота : 48,0 КГц
Битовая глубина : 16 бит
Метод сжатия : С потерями
Размер потока : 34,0 Мбайт (3%)
Аудио #2
Идентификатор : 129 (0x81)
Формат : AC-3
Формат/Информация : Audio Coding 3
Расширение режима : CM (complete main)
Продолжительность : 24 м.
Вид битрейта : Постоянный
Битрейт : 192 Кбит/сек
Канал(ы) : 2 канала(ов)
Расположение каналов : Front: L R
Частота : 48,0 КГц
Битовая глубина : 16 бит
Метод сжатия : С потерями
Размер потока : 34,0 Мбайт (3%)
Аудио #3
Идентификатор : 130 (0x82)
Формат : AC-3
Формат/Информация : Audio Coding 3
Расширение режима : CM (complete main)
Продолжительность : 24 м.
Вид битрейта : Постоянный
Битрейт : 192 Кбит/сек
Канал(ы) : 2 канала(ов)
Расположение каналов : Front: L R
Частота : 48,0 КГц
Битовая глубина : 16 бит
Метод сжатия : С потерями
Размер потока : 34,0 Мбайт (3%)
Текст #1
Идентификатор : 32 (0x20)
Формат : RLE
Формат/Информация : Run-length encoding
Задержка видео : 3 с. 480 мс.
Текст #2
Идентификатор : 33 (0x21)
Формат : RLE
Формат/Информация : Run-length encoding
Задержка видео : 3 с. 480 мс.
Текст #3
Идентификатор : 34 (0x22)
Формат : RLE
Формат/Информация : Run-length encoding
Задержка видео : 3 с. 280 мс.

Скриншоты меню

Скриншоты

Торрент обновлен
Диски DVD5 заменены на оригинальные DVD9
Вы не можете начинать темы
Вы не можете отвечать на сообщения
Вы не можете редактировать свои сообщения
Вы не можете удалять свои сообщения
Вы не можете голосовать в опросах
Вы не можете прикреплять файлы к сообщениям
Вы можете скачивать файлы
!ВНИМАНИЕ!

Сайт не предоставляет электронные версии произведений, а занимается лишь коллекционированием и каталогизацией ссылок, присылаемых и публикуемых на форуме нашими читателями. Если вы являетесь правообладателем какого-либо представленного материала и не желаете, чтобы ссылка на него находилась в нашем каталоге, свяжитесь с нами, и мы незамедлительно удалим ее. Файлы для обмена на трекере предоставлены пользователями сайта, и администрация не несет ответственности за их содержание. Просьба не заливать файлы, защищенные авторскими правами, а также файлы нелегального содержания!

Искали программы, игры, дополнения, музыка mp3, аниме, аудио книги, журналы? Добро пожаловать на свободный торрент трекер Torrents, у нас можно скачать бесплатно, без смс и регистрации и прочих ограничений лучшие, отборные сборки программ, игр. Скачать торрентом не составит труда даже не опытному пользователю. Раздачи ежедневно обновляются, только лучшие и качественные раздачи, подробные описания и скриншоты. Огромная коллекция программ для работы со звуком, графикой, дизайном, а так же множество плагинов и инструментов к ним с подробной инструкцией и рекомендациями. Прошивки для навигаторов, карты. Разнообразные игры, для Windows, Linux. В коллекцие есть и старые игры любых жанров, Rpg, Action, Shooter, strategy Множество дополнений, модификаций, сценариев для популярных игр в жанре экш, рпг, гонки, стратегии, логические игры. Множество аддонов и сценариев для Microsoft Flight Simulator Большая коллекция книг, учебников. Если нет возможности купить печатное издание - смело скачивайте цифровую версию книги или, быть может, журнала. Не любите читать - можно загрузить бесплатно аудикнигу. Для веб дизайнеров и программистов так же найдется множество специализированного софта, таких как: редакторы с подсветкой, среды программирования, компоненты, системы управления базами данных, разнообразные скрипты и шаблоны. Не так давно у нас появился материал для автолюбителей и владельцев мото - оригинальные и неоригинальные каталоги запчастей, книги и журналы по ремонту и обслуживанию, видеоуроки, статьи по чип тюнингу, прошивкам. Процедура получения контента элементарная, достаточно просто скачать торрент файл и добавить его в загрузку в вашем торрент клиенте. Если у вас нет специального торрент клиента, вы можете его скачать у нас.