Скользящие / Sliders / Сезон: 4 (5) / Серии: 1-22 (22) (Jerry O\'Connell, Reza Badiyi etc) [1998-99, США, фантастика, DVDRip-AVC] 

Цитировать
Скользящие 4 сезон / Sliders Season 4
Год выпуска: 1998-99
Страна: США
Жанр: фантастика
Продолжительность: 00:45:00
Перевод: двухголосый закадровый Universal Sci-Fi
Русские субтитры: нет
Субтитры: английские
Режиссёр: Jerry O'Connell, Reza Badiyi, Mark Sobel, David Peckinpah, Jefferson Kibbee etc
В ролях: Джерри О'Коннелл, Сабрина Ллойд, Клеавант Деррикс, Кэри Вюрер
Описание: Sliders - фантастический сериал про студента-физика Куина Мелори, который, основываясь на теории Энштейна, проводил эксперименты по исследованию гравитации. В ходе них он вместо гравитационной машины он получил машину-портал, позволяющую перемещаться ("скользить") в параллельные миры. Куин вместе со своим учителем профессором Артуро, подружкой Вейд и случайно попавшим в воронку портала музыкантом Рембрандтом Брауном отправился в путешествие в параллельный мир. Но настройки таймера, контролирующего их скольжения, сбились. И теперь они не могут вернуться домой и не знают в какой следующий мир попадут...
Дополнительная информация.
  • DVDRip-AVC 1-3 сезоны

  • Все раздачи сериала на трекере
  • Все благодарности за синхронизацию русской аудиодорожки - к SawRaska
  • Пятый сезон на DVD выходил только в Германии, avc-рипов нет, оригинальные диски недоступны, потому релиза в таком виде в ближайшее время не будет.
    Качество: DVDRip
    Формат: MKV
    Видео кодек: H.264
    Аудио кодек: AC3
    Видео: 700x476@700х524, x264, 23.976 fps, 1950 kbps
    Аудио 1: AC3, 48kHz, 2.0, 192 kbps - Russian Universal Sci-Fi
    Аудио 2: AC3, 48kHz, 2.0, 192 kbps - English
    Субтитры: английские

MI

H:\Serial\Sliders\Sliders.04\Sliders.s04e03.Common.Ground.mkv
General
Complete name : H:\Serial\Sliders\Sliders.04\Sliders.s04e03.Common.Ground.mkv
Format : Matroska
File size : 760 MiB
Duration : 45mn 37s
Overall bit rate : 2 330 Kbps
Movie name : Sliders.DVDRip-AVC - LonerD © DreamLair.net
Encoded date : UTC 2011-03-10 13:32:41
Writing application : mkvmerge v4.4.0 ('Die Wiederkehr') built on Oct 31 2010 21:52:48
Writing library : libebml v1.0.0 + libmatroska v1.0.0
Video #1
ID : 1
Format : AVC
Format/Info : Advanced Video Codec
Format profile : High@L4.0
Format settings, CABAC : Yes
Format settings, ReFrames : 16 frames
Muxing mode : Container profile=Unknown@4.0
Codec ID : V_MPEG4/ISO/AVC
Duration : 45mn 37s
Bit rate : 1 948 Kbps
Width : 700 pixels
Height : 476 pixels
Display aspect ratio : 4:3
Original display aspect ratio : 4:3
Frame rate : 29.970 fps
Original frame rate : 24.059 fps
Color space : YUV
Chroma subsampling : 4:2:0
Bit depth : 8 bits
Scan type : Progressive
Bits/(Pixel*Frame) : 0.195
Stream size : 620 MiB (82%)
Title : Sliders s04e03 - Common Ground NTSC DVD
Writing library : x264 core 60 r928M 4816918
Encoding settings : cabac=1 / ref=16 / deblock=1:-3:-3 / analyse=0x3:0x133 / me=tesa / subme=7 / psy_rd=1.000000 / brdo=1 / mixed_ref=1 / me_range=32 / chroma_me=1 / trellis=2 / 8x8dct=1 / cqm=0 / deadzone=21,11 / chroma_qp_offset=0 / threads=24 / nr=0 / decimate=0 / mbaff=0 / bframes=16 / b_pyramid=1 / b_adapt=1 / b_bias=0 / direct=3 / wpredb=1 / bime=1 / keyint=250 / keyint_min=25 / scenecut=40(pre) / rc=2pass / bitrate=1948 / ratetol=1.0 / rceq='blurCplx^(1-qComp)' / qcomp=1.00 / qpmin=10 / qpmax=51 / qpstep=4 / cplxblur=20.0 / qblur=0.5 / ip_ratio=1.40 / pb_ratio=1.30 / aq=2:1.00
Language : English
Audio #2
ID : 2
Format : AC-3
Format/Info : Audio Coding 3
Mode extension : CM (complete main)
Codec ID : A_AC3
Duration : 45mn 37s
Bit rate mode : Constant
Bit rate : 192 Kbps
Channel(s) : 2 channels
Channel positions : Front: L R
Sampling rate : 48.0 KHz
Bit depth : 16 bits
Stream size : 62.7 MiB (8%)
Language : Russian
Audio #3
ID : 3
Format : AC-3
Format/Info : Audio Coding 3
Mode extension : CM (complete main)
Codec ID : A_AC3
Duration : 45mn 37s
Bit rate mode : Constant
Bit rate : 192 Kbps
Channel(s) : 2 channels
Channel positions : Front: L R
Sampling rate : 48.0 KHz
Bit depth : 16 bits
Stream size : 62.7 MiB (8%)
Language : English
Text #4
ID : 4
Format : UTF-8
Codec ID : S_TEXT/UTF8
Codec ID/Info : UTF-8 Plain Text
Language : English

Скриншоты


Вы не можете начинать темы
Вы не можете отвечать на сообщения
Вы не можете редактировать свои сообщения
Вы не можете удалять свои сообщения
Вы не можете голосовать в опросах
Вы не можете прикреплять файлы к сообщениям
Вы можете скачивать файлы
!ВНИМАНИЕ!

Сайт не предоставляет электронные версии произведений, а занимается лишь коллекционированием и каталогизацией ссылок, присылаемых и публикуемых на форуме нашими читателями. Если вы являетесь правообладателем какого-либо представленного материала и не желаете, чтобы ссылка на него находилась в нашем каталоге, свяжитесь с нами, и мы незамедлительно удалим ее. Файлы для обмена на трекере предоставлены пользователями сайта, и администрация не несет ответственности за их содержание. Просьба не заливать файлы, защищенные авторскими правами, а также файлы нелегального содержания!

Искали программы, игры, дополнения, музыка mp3, аниме, аудио книги, журналы? Добро пожаловать на свободный торрент трекер Torrents, у нас можно скачать бесплатно, без смс и регистрации и прочих ограничений лучшие, отборные сборки программ, игр. Скачать торрентом не составит труда даже не опытному пользователю. Раздачи ежедневно обновляются, только лучшие и качественные раздачи, подробные описания и скриншоты. Огромная коллекция программ для работы со звуком, графикой, дизайном, а так же множество плагинов и инструментов к ним с подробной инструкцией и рекомендациями. Прошивки для навигаторов, карты. Разнообразные игры, для Windows, Linux. В коллекцие есть и старые игры любых жанров, Rpg, Action, Shooter, strategy Множество дополнений, модификаций, сценариев для популярных игр в жанре экш, рпг, гонки, стратегии, логические игры. Множество аддонов и сценариев для Microsoft Flight Simulator Большая коллекция книг, учебников. Если нет возможности купить печатное издание - смело скачивайте цифровую версию книги или, быть может, журнала. Не любите читать - можно загрузить бесплатно аудикнигу. Для веб дизайнеров и программистов так же найдется множество специализированного софта, таких как: редакторы с подсветкой, среды программирования, компоненты, системы управления базами данных, разнообразные скрипты и шаблоны. Не так давно у нас появился материал для автолюбителей и владельцев мото - оригинальные и неоригинальные каталоги запчастей, книги и журналы по ремонту и обслуживанию, видеоуроки, статьи по чип тюнингу, прошивкам. Процедура получения контента элементарная, достаточно просто скачать торрент файл и добавить его в загрузку в вашем торрент клиенте. Если у вас нет специального торрент клиента, вы можете его скачать у нас.