(Goa Trance, Ambient) Out Of Phase - Alien Zoo (Flying Scotsman Productions) - 1998, FLAC (tracks+.cue), lossless 

Цитировать
Out Of Phase - Alien Zoo- Жанр: Goa Trance, Ambient
Страна-производитель диска: Denmark
Год издания диска: 1998
Издатель (лейбл): Flying Scotsman Productions
Аудиокодек: FLAC (*.flac)
Тип рипа: tracks+.cue
Битрейт аудио: lossless
Продолжительность: 1:12:42
Источник (релизер): Обмен
Наличие сканов в содержимом раздачи: Нет
Треклист:
01. Dilithium (12:43)
02. Lunar Lander (08:03)
03. Alien Zoo (09:44)
04. Silicon Impulse (11:50)
05. Fiona's Hope (10:26)
06. Consciousness Of The Infinite (09:46)
07. Caterpillar (10:09)
- -

Лог создания рипа

Exact Audio Copy V1.0 beta 2 from 29. April 2011
EAC extraction logfile from 30. June 2013, 15:18
Out Of Phase / Alien Zoo
Used drive : PLEXTOR DVDR PX-880SA Adapter: 3 ID: 0
Read mode : SecureUtilize accurate stream : YesDefeat audio cache : YesMake use of C2 pointers : No
Read offset correction : 6Overread into Lead-In and Lead-Out : NoFill up missing offset samples with silence : YesDelete leading and trailing silent blocks : NoNull samples used in CRC calculations : YesUsed interface : Native Win32 interface for Win NT & 2000Gap handling : Not detected, thus appended to previous track
Used output format : Internal WAV RoutinesSample format : 44.100 Hz; 16 Bit; Stereo
TOC of the extracted CD
Track | Start | Length | Start sector | End sector --------------------------------------------------------- 1 | 0:00.00 | 12:42.70 | 0 | 57219 2 | 12:42.70 | 8:03.32 | 57220 | 93476 3 | 20:46.27 | 9:44.35 | 93477 | 137311 4 | 30:30.62 | 11:49.53 | 137312 | 190539 5 | 42:20.40 | 10:25.58 | 190540 | 237472 6 | 52:46.23 | 9:46.33 | 237473 | 281455 7 | 62:32.56 | 10:08.63 | 281456 | 327118
Track 1
Filename P:\PTP\#2MAKE\Out Of Phase - Alien Zoo (1998)\01-Out_Of_Phase_-_Dilithium.wav
Peak level 100.0 % Extraction speed 1.4 X Track quality 100.0 % Test CRC 61AF0CA7 Copy CRC 61AF0CA7 Copy OK
Track 2
Filename P:\PTP\#2MAKE\Out Of Phase - Alien Zoo (1998)\02-Out_Of_Phase_-_Lunar_Lander.wav
Peak level 100.0 % Extraction speed 1.5 X Track quality 100.0 % Test CRC C2DF54BE Copy CRC C2DF54BE Copy OK
Track 3
Filename P:\PTP\#2MAKE\Out Of Phase - Alien Zoo (1998)\03-Out_Of_Phase_-_Alien_Zoo.wav
Peak level 100.0 % Extraction speed 2.0 X Track quality 100.0 % Test CRC 6BD3D65F Copy CRC 6BD3D65F Copy OK
Track 4
Filename P:\PTP\#2MAKE\Out Of Phase - Alien Zoo (1998)\04-Out_Of_Phase_-_Silicon_Impulse.wav
Peak level 100.0 % Extraction speed 2.2 X Track quality 100.0 % Test CRC 1A5CB8D2 Copy CRC 1A5CB8D2 Copy OK
Track 5
Filename P:\PTP\#2MAKE\Out Of Phase - Alien Zoo (1998)\05-Out_Of_Phase_-_Fiona's_Hope.wav
Peak level 96.9 % Extraction speed 2.3 X Track quality 100.0 % Test CRC 53748304 Copy CRC 53748304 Copy OK
Track 6
Filename P:\PTP\#2MAKE\Out Of Phase - Alien Zoo (1998)\06-Out_Of_Phase_-_Consciousness_Of_The_Infinite.wav
Peak level 96.8 % Extraction speed 0.5 X Track quality 100.0 % Test CRC ED0D72D6 Copy CRC ED0D72D6 Copy OK
Track 7
Filename P:\PTP\#2MAKE\Out Of Phase - Alien Zoo (1998)\07-Out_Of_Phase_-_Caterpillar.wav
Peak level 99.3 % Extraction speed 2.3 X Track quality 100.0 % Test CRC AEF5B773 Copy CRC AEF5B773 Copy OK
No errors occurred
End of status report

Содержание индексной карты (.CUE)

REM GENRE GoaREM DATE 1998REM DISCID 62110907REM COMMENT "ExactAudioCopy v1.0b2"PERFORMER "Out Of Phase"TITLE "Alien Zoo"FILE "01-Out_Of_Phase_-_Dilithium.wav" WAVE  TRACK 01 AUDIO    TITLE "Dilithium"    PERFORMER "Out Of Phase"    INDEX 01 00:00:00FILE "02-Out_Of_Phase_-_Lunar_Lander.wav" WAVE  TRACK 02 AUDIO    TITLE "Lunar Lander"    PERFORMER "Out Of Phase"    INDEX 01 00:00:00FILE "03-Out_Of_Phase_-_Alien_Zoo.wav" WAVE  TRACK 03 AUDIO    TITLE "Alien Zoo"    PERFORMER "Out Of Phase"    INDEX 01 00:00:00FILE "04-Out_Of_Phase_-_Silicon_Impulse.wav" WAVE  TRACK 04 AUDIO    TITLE "Silicon Impulse"    PERFORMER "Out Of Phase"    INDEX 01 00:00:00FILE "05-Out_Of_Phase_-_Fiona's_Hope.wav" WAVE  TRACK 05 AUDIO    TITLE "Fiona's Hope"    PERFORMER "Out Of Phase"    INDEX 01 00:00:00FILE "06-Out_Of_Phase_-_Consciousness_Of_The_Infinite.wav" WAVE  TRACK 06 AUDIO    TITLE "Consciousness Of The Infinite"    PERFORMER "Out Of Phase"    INDEX 01 00:00:00FILE "07-Out_Of_Phase_-_Caterpillar.wav" WAVE  TRACK 07 AUDIO    TITLE "Caterpillar"    PERFORMER "Out Of Phase"    INDEX 01 00:00:00

Об исполнителе (группе)

Peter Mossman
Producer, composer and bassist Peter Mossman is born in 1969 in Scotland.
He moved to south Spain at an age of 12. Later he moved to Copenhagen (Denmark)
where he still lives and works.
Out Of Phase is founded in 1998 as an ambient electronica project which evoluted to trance music.
In 2000 he started to make tribute albums like "The Wall 2000" and Acoustic Ladyland" to name a few.
A few years later he strarted to produce chillout and ethnic lounge again.

Об альбоме (сборнике)

This CD was self-pressed by the artist.
The front artwork misspells the artist's name as "Out Pf Phase".
Supposedly due to the font, the name of the album on the artwork appears to be "Alien 200",
but it is actually intended to be "Alien Zoo". Both these problems are fixed on a digital version
of the artwork created by the artist, but were never fixed for the real printed artwork.
"Note: No aliens were killed or injured in the making of this CD"

Spectrogram







Вы не можете начинать темы
Вы не можете отвечать на сообщения
Вы не можете редактировать свои сообщения
Вы не можете удалять свои сообщения
Вы не можете голосовать в опросах
Вы не можете прикреплять файлы к сообщениям
Вы можете скачивать файлы
!ВНИМАНИЕ!

Сайт не предоставляет электронные версии произведений, а занимается лишь коллекционированием и каталогизацией ссылок, присылаемых и публикуемых на форуме нашими читателями. Если вы являетесь правообладателем какого-либо представленного материала и не желаете, чтобы ссылка на него находилась в нашем каталоге, свяжитесь с нами, и мы незамедлительно удалим ее. Файлы для обмена на трекере предоставлены пользователями сайта, и администрация не несет ответственности за их содержание. Просьба не заливать файлы, защищенные авторскими правами, а также файлы нелегального содержания!

Искали программы, игры, дополнения, музыка mp3, аниме, аудио книги, журналы? Добро пожаловать на свободный торрент трекер Torrents, у нас можно скачать бесплатно, без смс и регистрации и прочих ограничений лучшие, отборные сборки программ, игр. Скачать торрентом не составит труда даже не опытному пользователю. Раздачи ежедневно обновляются, только лучшие и качественные раздачи, подробные описания и скриншоты. Огромная коллекция программ для работы со звуком, графикой, дизайном, а так же множество плагинов и инструментов к ним с подробной инструкцией и рекомендациями. Прошивки для навигаторов, карты. Разнообразные игры, для Windows, Linux. В коллекцие есть и старые игры любых жанров, Rpg, Action, Shooter, strategy Множество дополнений, модификаций, сценариев для популярных игр в жанре экш, рпг, гонки, стратегии, логические игры. Множество аддонов и сценариев для Microsoft Flight Simulator Большая коллекция книг, учебников. Если нет возможности купить печатное издание - смело скачивайте цифровую версию книги или, быть может, журнала. Не любите читать - можно загрузить бесплатно аудикнигу. Для веб дизайнеров и программистов так же найдется множество специализированного софта, таких как: редакторы с подсветкой, среды программирования, компоненты, системы управления базами данных, разнообразные скрипты и шаблоны. Не так давно у нас появился материал для автолюбителей и владельцев мото - оригинальные и неоригинальные каталоги запчастей, книги и журналы по ремонту и обслуживанию, видеоуроки, статьи по чип тюнингу, прошивкам. Процедура получения контента элементарная, достаточно просто скачать торрент файл и добавить его в загрузку в вашем торрент клиенте. Если у вас нет специального торрент клиента, вы можете его скачать у нас.